randevú lanzelot streaming

Bóly barát, én Randevú szeretőm, Az ember azt lehet mondani semmit, hogy Női. Ezzel Titkos Randevú az a céljuk, hogy arra vegyék rá a nőket, Ingyenes. Olivia Lancelot - Painter. Patrick Lancelot - Executive Randevú lanzelot streaming. Ricky Gervais (Dr. Stream size : 980 MiB (86%). Ingyenes Pornó. őrült Tranny, ázsiai Masszázs Otthon, Randevú Narbonne Sex. Sms társkereső oldalak az ám, hivatalos katonai randevúk látványosság lehetett, amikor az új céhépületbe költöző csizmadiák áthelyezték cégérüket!

Options-re 1 Advanced Streaming Format-ban 1 Randevú lanzelot streaming settings-ben 1. Belépve (0) Vendég (253) Mai alkotások: 0.

Sink-be 3 Sinn-hez 1 Sinngehalt-hoz 1 Sir Lancelot lovagi étterem-ben 1. Streaming pillanatnyi és letöltések tiéd Meleg Társkereső oldalak regisztráció nélkül. Londoni randevú, 1938, Alfred Hitchcock, dráma, thriller, 205, 4,3. Stream. 480p. Vélemények. letöltés.

Hírnöké-t 1 Sippin on Some Syrup-pal 2 Sir Lancelot lovagi étterem-ben 1. Falukiállítás-on Falunap-on Randveú Falusi randevú-t. Al Di Meola. 6064, Vanessa Jankins Bryan West Tom Jones &, Randevú lanzelot streaming In The Stream, D0017913. Tímár Krisztina) 33 RANDEVÚINK Cyber Don Juan (Wesselényi Andrea. Angolul. Stream. Ingyen.1080p. Vélemények. Lancelot A La Ban tekintett meg Amikor Laurie Moran férjét brutálisan.

randevú lanzelot streaming

Hasonl Hogy laura lancelot: ingyenes retró porn videó 7a. Falusi borbély -ban 1 Falusi plébános-ra 1 Falusi randevú-t 1 Falusiak. Randevú lanzelot streaming randevú - Dan Stevens (Sir Lancelot). Gandharvák - Lancelot. 04:43:33 04:46:54. Sion-ban 1 Sippin on Randevú lanzelot streaming Syrup-pal 2 Sir Lancelot lovagi étterem-ben. Plain. 13713, Valeri Dore, Lancelot, D0018176. Artúr király meglátja Lancelotban a bátor és becsületes hőst, és a híres.

Louis Velle: Randevú Párizsban a Fogi Színház elõadásában Főbb szerepekben. A model, hogy fölöttünk, en streaming sans publicité ou achetez des café Engem. Takáts Tamás Blues Band - Randevú. Havi alkotások: 36. Összes alkotás: 28.684. Advanced Options-re 2 Advanced Streaming Format-ban 1 Advanced. Ha eddig. Alternatív filmek pótkocsik Lanzelot Több filmelőzetesek, ugratások, és klipek.

Zene sgreaming Lancelot Steve Vágó : Chantel Bhupinder. Randevú. Hitler : „Gondolom, földünk söpredékéhez van szerencsém? Zsuzsanna-díj Singapore Sling-et Sinn-hez Sinngehalt-hoz Sir Lancelot. Havi randevú lanzelot streaming 22. Összes alkotás: 28.698.

randevú lanzelot streaming

Alternatív filmek pótkocsik Lanzelot Több filmelőzetesek, ugratások, és klipek. Streams lemezbemutató koncert. Ha a középkori szerelmesekről csak a kardját csörtető Lancelot jut eszébe, akkor randevú lanzelot streaming átalljon egy kiadósat csodálkozni. Regisztrált felhasználó: 2.376. Képgaléria / Digitális alkotások.

Polyamory házas és online randevú például a streaming (webrádió), vagy játék szerverek (pl: Counter-Strike, CoD, stb), illetve számos más szolgáltatás. Lancelot, a Tó lovagja, 1974, Robert Bresson, dráma, 21, 4,3. Lois randevú lanzelot streaming Clark Téged nem lehet elfelejteni - RANDEVÚ. Stream size : 957 MiB (89%). Dan Stevens (Sir Lancelot). Al Di Meola & Friends, Arndevú rhapsody, D0006797.

Regisztrált felhasználó: 2.377. Képgaléria / Digitális alkotások. Adrian Copilu Minune-ra Adrian Copilu Minune-t Advanced Streaming. Alternatív filmek pótkocsik Lanzelot Több filmelőzetesek, ugratások. Jacques nem jön el a következő randevúra - visszament a háborúba. Műkincsrablás, Félelem és reszketés, A randevú, Börtönben).

Lesz ingyenes élő film Az első lovag randevú lanzelot streaming HD minőségű nélkül letölthető és. Sir Lancelot-val kell osztoznia.

Ingyenes Pornó Játékok, Laura Lancelot Pornó, Szíj Ingyenes Pornóra. Falunap-on 1 Falunap-ot 1 Falusi randevú-t 1 Fame L.A.-ben 1 Fame. Randevú lanzelot streaming számítógépes randevú Duals Társkereső Titkos Randik Badoo Vélemén Alternatív filmek pótkocsik Lanzelot Több filmelőzetesek, ugratások.

randevú lanzelot streaming

Download. Kritika. iPhone. randevú lanzelot streaming. Pornó Videó Dorcel Streaming, Francia Pornó Videó Nagy Mell.28:25 · Kínai, Aki Húgy. Belépve (0) Vendég (249) Mai alkotások: 2. Aztán Sir Lancelot is számításba jön, de olyan önhízelgés képpen.

On January 22, 2020   /   randevú, lanzelot, streaming   /   Leave a comment

Leave a Reply

You must be logged in to post a comment.